&title=[宴/バディ/2P]アカツキアライヴァル
&artist=Last Note.
&first=0
&des=
&wholebpm=125
&genre=niconicoボーカロイド
&cabinet=DX
&version=maimai DX BUDDiES
&chartconverter=Massannnn
&des_7=ライバル譜面
&lv_7=協
&inote_7=(125){1},
{16},,,,,,,,,,,,2,7,3,6,
{16}4x/5x,,6,5,6,,4,5,,3,4,,2/5,,4/7,,
{16}4/5,,3,4,3,,5,4,,6,5,,4/7,,2/5,,
{16}1,5,2,5,3,5,4,5,6,5,7,5,8,5,1,5,
{16}2,2h[16:3],,1,1,,8,8<4[16:3],,4,4,,3,,2,,
{16}4x/5x,,3,4,3,,5,4,,6,5,,4/7,,2/5,,
{16}4/5,,6,5,6,,4,5,,3,4,,2/5,,4/7,,
{16}8,4,7,4,6,4,5,4,3,4,2,4,1,4,8,4,
{16}7,7h[16:3],,5,5,,4,5,,4/5,4/5,,1/8,,2/7,,
{16}2/7,,7,8,7,,1,8,,2,1,,1/2,,3/8,,
{16}1/2,,2,1,2,,8,1,,7,8,,6,,7/8,,
{16}1/6h[8:2],,,,5,,4,5,,3,4,,3/4,,2/5,,
{16}3/4,,3,4,3,,5,4,,6,5,,5-1[8:1]/6-8[8:1],,,,
{16}5x/6x,,,,1/2,,2,1,,1,8,,7/8,,1/6,,
{16}7/8,,7,8,7,,1,8,,2,1,,1/2<7[8:1],,3,,
{16}2/4,,,,5/6,,4,5,,3,4,,3/4,,2/5,,
{4}1h[8:1]/6h[8:1],7h[8:1]/8h[8:1],1h[8:1]/6h[8:1],7h[8:1]/8h[8:1],
{16}3h[8:5],,5,,4,,,2,,,7,,2h[8:1]/6,,6,,
{16}3h[8:5],,5,,4,,,2,,,6,,2h[8:1]/5V38[4:1],,5,,
{8}3h[8:5]/5x,,,7,6,5,2h[8:1]/4,5,
{4}3h[4:1]/6>3[8:1],6x,1h[4:1]/6<1[8:1],6x,
{16}3h[8:5],,5,,4,,,2,,,7,,2h[8:1]/6,,6,,
{16}3h[8:5],,5,,4,,,2,,,6,,3qq1[8:1]/7qq5[8:1],,3/7,,
{8}3x/7x,,,2/8<4[8:1],,2/8x,1-4[8:1]*-6[8:1],,
{16}1x,,,,2/7,,1,8,2-6[8:1],,6-2[8:1],,,,,,
{8}5,5h[4:1],,B6,B3,8,7,6,
{8}4,4h[4:1],,B3,B6,1,2,3,
{8}5,5h[4:1],,B6,B3,8>5[8:3],7,6h[8:7],
{2},1-5[8:1],
{16}3,,3,,2/4,,5,4,,6,5h[4:1],,8,,7,,
{16}6,,6,,5/7,,4,5,,3,4h[4:1],,1,,2,,
{8}3-7[8:1],3,1-5[8:1],1,4-8[8:1],4,7,6,
{8}4/5,3/6,2>8[4:1]/7,1/8,2x/7x,,1b,,
{16}6x,4,8,1,5,,3,4,,7,8,,2,1,3,,
{16}7V51[4:1],8,7,8,7,,4,4,,2,2,,4/5,,3/6,,
{16}2,8,4,5,1,,7,8,,3,4,,3/6,,3/6,,
{32}E2/6xh[8:1],B1,B8,E8,,,,,E6/2xh[8:1],B5,B4,E4,,,,,E2/6xh[8:1],B1,B8,E8,,,,,E6/2b,B5,B4,E4,,,,,
{16}7xV51[4:1],8,7,8,7,,4,4,,3,3,,8,1,7,,
{16}3,4,3,4,2h[8:1],,5,8h[8:1],,7,1h[8:1],,6,,7/8,,
{16}7V51[4:1],8,7,8,7,,4,4,,3,3,,1/2,,7/8,,
{32}E8/3xh[8:1],B8,B1,E2,,,,,E4/7xh[8:1],B4,B5,E6,,,,,E8/3xh[8:1],B8,B1,E2,,,,,E4/7x,B4,B5,E6,,,,,
{16}4/6xh[1:1],,3,3,,2,2,,1h[4:1],,,,,,,,
{16}3h[1:1],,2,2,,1,1,,8-4[8:1],,,,8x>5[4:1],,,,
{8}8x,,,3h[8:1]/6hb[8:1],,4/5b,3/6b,2/7b,
{4}1-4[8:1]`8b-5[8:1]b,,C1hf[2:1],,
{8}8b,,7,7h[8:3],,6,5V37[4:1],4,
{16}3h[8:3],,,,,,8<5[8:1],,,,4,,4,,2,4,
{16}3,,,3qq5[16:5]/5,,,3x/6xh[8:3],,,,,,,,7,5,
{16}6,,,4/6z2[16:5],,,3xh[8:3]/6x,,,,,,,,,,
{16}5/7,,3,4,2,2,5,4,7,7,,6/8,,1,8,,
{24}1x,2,3,8x,7,6,4xh[8:1],,,5xh[8:1],,,2x,3,4,7x,6,5,3<1[4:1],,,,,,
{16}3x/7h[4:1],,,,,,6,5,6,,3,4,,6,5,,
{16}4x,4,8,3x,3,7,2x,2,6,1x,1,5,8-4[8:1],,,,
{1}8/3bh[8:31],
{1},
{1},
{1},
{8}3h[2:1]/5,5,5,5,6,6,3h[8:1]/6,6,
{8}3h[2:1]/7,7,7,7,8,8,3h[8:1]/8,8,
{8}1V37[4:1]/3h[2:1],,,,,8,3h[8:1]/7,6,
{8}4/5-1[8:1],6,4-8[8:1],3,5-1[8:1],6,4<3[2:1],,
{16}8b,,,,,,,,,,,,3,6,3,6,
{16}1x,1,7,7,8V26[16:3],,5,5,,7,7,,5/7,,3/4,,
{16}8,8,2,2,1V73[16:3],,4,4,,2,2,,2/4,,5/6,,
{16}1,1,7,7,8V26[16:3],,5,5,,7,7,,8,,1/7,,
{32}E2f/6xh[8:1],B1,B8,E8,,,,,E6f/2xh[8:1],B5,B4,E4,,,,,E2f/6xh[8:1],B1,B8,E8,,,,,E6f/2b,B5,B4,E4,,,,,
{16}8x,8,2,2,1V73[16:3],,4,4,,2,2,,2/4,,5/6,,
{16}1,1,7,7,8V26[16:3],,5,5,,7,7,,5/7,,3/4,,
{16}8-4[8:1],1/7,,3,3,,1-5[8:1],2/8,,6,6,,8,,1/7,,
{32}E8f/3xh[8:1],B8,B1,E2,,,,,E4f/7xh[8:1],B4,B5,E6,,,,,E8f/3xh[8:1],B8,B1,E2,,,,,E4f/7x,B4,B5,E6,,,,,
{16}2/8,,1pp4[8:3]/7,1/7,,6,6,,5,,6,,7,,5/8,,
{16}1/7,,2/8qq5[8:3],2/8,,3,3,,4,,3,,2,,1/4,,
{16}3/5,,4/6,,2,4,3h[8:1],,7,5,6h[8:1],,1,3,2h[8:1],,
{16}8,1,8,1,2-4[8:1]/6-4[8:1],,,,2x-8[8:1]/6x-8[8:1],,,,2x/6x,,,,
{1}3bV58[4:7]/7h[4:8],
{1},
{1},
{1},
{1},
E
